Loading...

(Fr3) Des racines et des ailes : Les couleurs du Périgord (2012)

Posted By : Morocco | Date : 04 Jun 2012 21:24:09 | Comments : 0 |
|



(Fr3) Des racines et des ailes : Les couleurs du Périgord (2012)
TNT-Rip by Clo2 | French | 1h43min | 640 x 368 | 25.000 fps | Avi | MPEG-4 XviD @ 895 Kbps | MP3 @ 112 Kbps | 751 MB
Genre : Documentaire

Entre Aquitaine et Massif central, le Périgord dévoile un patrimoine exceptionnel au gré de ses couleurs emblématiques : vert, blanc, pourpre et noir ! De grottes préhistoriques en châteaux, de bastides séculaires en villages de caractère, le Périgord nous offre un étonnant voyage à travers le temps… C’est à cette région et ses nombreuses facettes que "Des Racines & des Ailes", présentée par Louis Laforge, consacre son prochain numéro.

Sarlat est la capitale du Périgord noir. Romain Bondonneau est historien et auteur de guides sur sa cité dont il explore inlassablement les monuments comme la mystérieuse lanterne des morts. Avec un photographe italien tombé amoureux de la région, il survole pour la première fois en montgolfière la majestueuse vallée des châteaux.

Toujours dans le Périgord noir, un autre passionné protège la Vézère. Guide et ancien champion de canoë, Philippe Colomy connaît toutes les merveilles de cette rivière. Chaque année, il organise avec les membres de son association un grand nettoyage au fil de l’eau, au pied du majestueux village troglodytique de la Madeleine. Ce belvédère marque l’entrée dans la Vallée de l’Homme célèbre pour ses sites préhistoriques. C’est ici qu’a débuté l’étude de la préhistoire, au 19ème siècle. Ici qu’a été découverte la grotte de Lascaux il y 70 ans.

Fragile et totalement fermée au public, Lascaux est néanmoins régulièrement étudiée par les scientifiques. Exceptionnellement, une caméra a été autorisée à filmer Muriel Mauriac, la conservatrice de la grotte, au cours d’une mission de surveillance. Un voyage fascinant dans une grotte de légende façonnée par l’homme il y a 17.000 ans !

Direction Belvès, où le nouveau propriétaire d’une demeure seigneuriale a découvert dans son grenier une peinture murale du 15ème siècle représentant les neuf preux. Il a fait appel à Cornelia Cione, venue d’Italie, pour rendre à l’œuvre oubliée tout son lustre. L’occasion aussi de découvrir le majestueux château de Jumilhac, au cœur du Périgord vert. Henry de la Tour du Pin, son propriétaire, a lui aussi mis au jour des fresques datant de la Renaissance !

Dans les lumières automnales de la forêt de Champs-Romain, Jean-Pierre Biaussa, un fin connaisseur des cèpes, transmet son savoir à un jeune scientifique qui étudie les secrets du champignon-roi, le véritable trésor du Périgord. Au sud de la vallée de la Dordogne, un jeune couple fait revivre une tradition oubliée, la récolte du safran. Une épice rare et chère qu’il réserve à Philippe Latreille, un chef cuisinier enfant du pays. Passionné par la préparation du foie gras, il organise régulièrement des stages pour faire redécouvrir aux Périgourdins l’art de le cuisiner…

En Périgord pourpre, l’abbaye médiévale de Cadouin est en restauration. Un chantier d’envergure mené par Patrick Palem. Dans son atelier de Périgueux, il restaure avec les techniques les plus récentes des pièces venues du monde entier. Enfin, dans la vallée du Bergeracois, un château renaît grâce à l’obstination d’une association de passionnés. Malmené et pillé depuis trente ans, Bridoire vient d’être racheté par Jacques Guyot, un fou de monuments historiques ! En famille et avec l’aide des habitants du village, l’édifice va enfin pouvoir ouvrir ses portes au public…

MediaInfo
Format : AVI
Format/Info : Audio Video Interleave
File size : 751 MiB
Duration : 1h 43mn
Overall bit rate : 1 017 Kbps
Writing application : VirtualDubMod 1.5.10.3 Fr | www.virtualdub-fr.org || (build 2550/release)
Writing library : VirtualDubMod build 2550/release

Video
ID : 0
Format : MPEG-4 Visual
Format profile : Advanced Simple@L5
Format settings, BVOP : 2
Format settings, QPel : No
Format settings, GMC : No warppoints
Format settings, Matrix : Default (MPEG)
Muxing mode : Packed bitstream
Codec ID : XVID
Codec ID/Hint : XviD
Duration : 1h 43mn
Bit rate : 895 Kbps
Width : 640 pixels
Height : 368 pixels
Display aspect ratio : 1.739
Frame rate : 25.000 fps
Color space : YUV
Chroma subsampling : 4:2:0
Bit depth : 8 bits
Scan type : Progressive
Compression mode : Lossy
Bits/(Pixel*Frame) : 0.152
Stream size : 662 MiB (88%)
Writing library : XviD 64

Audio
ID : 1
Format : MPEG Audio
Format version : Version 1
Format profile : Layer 3
Mode : Joint stereo
Mode extension : MS Stereo
Codec ID : 55
Codec ID/Hint : MP3
Duration : 1h 43mn
Bit rate mode : Constant
Bit rate : 112 Kbps
Channel(s) : 2 channels
Sampling rate : 48.0 KHz
Compression mode : Lossy
Stream size : 82.8 MiB (11%)
Alignment : Aligned on interleaves
Interleave, duration : 40 ms (1.00 video frame)
Interleave, preload duration : 504 ms
Writing library : LAME3.98r
Encoding settings : -m j -V 4 -q 3 -lowpass 15.6 -b 112









No Pass ;)

Un merci ?

~ Lien ~

Filepost
ou
Rapidgator
ADVERTISING » Very Fast Download!



« ADVERTISING




No comments for the news